VA - Eccentric Soul-The Deep City Label (2006) FLAC

Discutii despre melodii, videoclipuri, etc.

VA - Eccentric Soul-The Deep City Label (2006) FLAC

Postby TheCornor » 29 Mar 2020, 09:51

Image
Artist: VA
Title: Eccentric Soul-The Deep City Label
Year Of Release: 2006
Label: Numero Group[Nb007]
Genre: Soul, Funk
Quality: FLAC (tracks + .cue,log)
Total : 45:42
Total Size: 303 MB(+3%)


Tracklist

01. Them Two - Am I A Good Man
02. Moovers - Someone To Fulfill My Needs
03. Helene Smith - I Am Controlled By Your Love
04. Johnny K. Killens And The Dynamites - I Don't Need Help
05. Freda Gray And The Rocketeers - Stay Away From My Johnny
06. Helene Smith - Thrills And Chills
07. Betty Wright - Paralyzed
08. Moovers - I Love You Baby
09. Helene Smith - Pain In My Heart
10. Paul Kelly - The Upset
11. Moovers - One Little Dance
12. Betty Wright - Good Lovin'
13. Helene Smith - Willing And Able
14. Paul Kelly - It's My Baby
15. Helene Smith - You Got To Do Your Share
16. Frank Williams And The Rocketeers- Good Thing (Part 1)
17. Moovers - Darling I'll Go

Toiling in Floridian swelter for just a few years, the Deep City label and its sound would permeate the Miami-metro area and dress the set for disco powerhouse TK's impressive 1970s run. Before "Rockin' Chair," "Rock Me Baby," or "Clean Up Woman," a few roguish cats from Florida A&M University's Marching 100 band were blending their flams and paradiddles with the island sounds drifting into Miami's airwaves from points unknown. Willie Clarke, Johnny Pearsall, Clarence Reid, and Arnold Albury set up the city's first black record company, pumping out brassy proto-funk and echo-laden ballads by future hitmakers Betty Wright, Clarence "Blowfly" Reid, and Paul Kelly, plus a dozen can't-miss/did-miss sides by Helene Smith, as well as a slew of 45s bearing Deep City, Lloyd, and Reid labels. Them Two's "Am I A Good Man" must've simply been too damn good; it melted into Intercoastal waterways, alongside Four Tops-ified Moovers acetate "Darling I'll Go," and Clarke and company took separate roads toward Henry Stone's mighty TK empire. The first of Numero's twin Florida soul volumes, any Eccentric sojourn through the sunshine state bs with The Deep City Label. Our double-LP edition includes six bonus cuts and a plethora of photographs found nowhere else.

 EAC LogExact Audio Copy V1.0 beta 3 from 29. August 2011

EAC extraction logfile from 13. November 2014, 19:50

- / Eccentric Soul:The Deep City Label

Used drive : PLEXTOR DVDR PX-L890SA Adapter: 1 ID: 0

Read mode : Secure
Utilize accurate stream : Yes
Defeat audio cache : Yes
Make use of C2 pointers : No

Read offset correction : 6
Overread into Lead-In and Lead-Out : No
Fill up missing offset samples with silence : Yes
Delete leading and trailing silent blocks : No
Null samples used in CRC calculations : Yes
Used interface : Native Win32 interface for Win NT & 2000
Gap handling : Appended to previous track

Used output format : User Defined Encoder
Selected bitrate : 128 kBit/s
Quality : High
Add ID3 tag : No
Command line compressor : C:\Program Files (x86)\Exact Audio Copy\Flac\flac.exe
Additional command line options : -8 -V -T "ARTIST=%artist%" -T "TITLE=%title%" -T "ALBUM=%albumtitle%" -T "DATE=%year%" -T "TRACKNUMBER=%tracknr%" -T "TOTALTRACKS=%numtracks%" -T "GENRE=%genre%" -T "ALBUMARTIST=%albumartist%" -T "ALBUM ARTIST=%albumartist%" -T "COMMENT=EAC Secure Mode, Test & Copy, AccurateRip, FLAC -8" %source%

TOC of the extracted CD

Track | Start | Length | Start sector | End sector
---------------------------------------------------------
1 | 0:00.00 | 3:11.55 | 0 | 14379
2 | 3:11.55 | 2:55.31 | 14380 | 27535
3 | 6:07.11 | 3:07.33 | 27536 | 41593
4 | 9:14.44 | 2:09.55 | 41594 | 51323
5 | 11:24.24 | 2:30.61 | 51324 | 62634
6 | 13:55.10 | 2:40.12 | 62635 | 74646
7 | 16:35.22 | 2:41.34 | 74647 | 86755
8 | 19:16.56 | 2:35.14 | 86756 | 98394
9 | 21:51.70 | 2:53.05 | 98395 | 111374
10 | 24:45.00 | 2:29.02 | 111375 | 122551
11 | 27:14.02 | 2:26.61 | 122552 | 133562
12 | 29:40.63 | 2:45.23 | 133563 | 145960
13 | 32:26.11 | 2:33.71 | 145961 | 157506
14 | 35:00.07 | 2:37.41 | 157507 | 169322
15 | 37:37.48 | 2:26.06 | 169323 | 180278
16 | 40:03.54 | 3:00.34 | 180279 | 193812
17 | 43:04.13 | 2:39.01 | 193813 | 205738

Track 1

Filename H:\C Users RNCK\Music\RIPS\Eccentric Soul-The Deep City Label\01 - Them Two - Am I A Good Man.wav

Pre-gap length 0:00:02.00

Peak level 99.6 %
Extraction speed 1.7 X
Track quality 100.0 %
Test CRC 6ECDEAC5
Copy CRC 6ECDEAC5
Accurately ripped (confidence 9) [B0B3B283] (AR v2)
Copy OK

Track 2

Filename H:\C Users RNCK\Music\RIPS\Eccentric Soul-The Deep City Label\02 - Moovers - Someone To Fulfill My Needs.wav

Pre-gap length 0:00:02.53

Peak level 99.6 %
Extraction speed 1.8 X
Track quality 100.0 %
Test CRC F54A548E
Copy CRC F54A548E
Accurately ripped (confidence 9) [208EF882] (AR v2)
Copy OK

Track 3

Filename H:\C Users RNCK\Music\RIPS\Eccentric Soul-The Deep City Label\03 - Helene Smith - I Am Controlled By Your Love.wav

Pre-gap length 0:00:02.53

Peak level 99.6 %
Extraction speed 2.0 X
Track quality 100.0 %
Test CRC 2A844469
Copy CRC 2A844469
Accurately ripped (confidence 9) [CE525360] (AR v2)
Copy OK

Track 4

Filename H:\C Users RNCK\Music\RIPS\Eccentric Soul-The Deep City Label\04 - Johnny K. Killens And The Dynamites - I Don't Need Help.wav

Pre-gap length 0:00:02.53

Peak level 99.5 %
Extraction speed 1.9 X
Track quality 100.0 %
Test CRC 5A142EA4
Copy CRC 5A142EA4
Accurately ripped (confidence 9) [A211A937] (AR v2)
Copy OK

Track 5

Filename H:\C Users RNCK\Music\RIPS\Eccentric Soul-The Deep City Label\05 - Freda Gray And The Rocketeers - Stay Away From My Johnny.wav

Pre-gap length 0:00:02.53

Peak level 99.6 %
Extraction speed 2.1 X
Track quality 100.0 %
Test CRC 4A57F501
Copy CRC 4A57F501
Accurately ripped (confidence 9) [20A424DA] (AR v2)
Copy OK

Track 6

Filename H:\C Users RNCK\Music\RIPS\Eccentric Soul-The Deep City Label\06 - Helene Smith - Helene Smith - Thrills And Chills.wav

Pre-gap length 0:00:02.53

Peak level 99.7 %
Extraction speed 2.2 X
Track quality 100.0 %
Test CRC 0323C097
Copy CRC 0323C097
Accurately ripped (confidence 9) [4C06E2BD] (AR v2)
Copy OK

Track 7

Filename H:\C Users RNCK\Music\RIPS\Eccentric Soul-The Deep City Label\07 - Betty Wright - Paralyzed.wav

Pre-gap length 0:00:02.53

Peak level 99.7 %
Extraction speed 2.3 X
Track quality 100.0 %
Test CRC 9FD7FB9D
Copy CRC 9FD7FB9D
Accurately ripped (confidence 9) [2DB45E22] (AR v2)
Copy OK

Track 8

Filename H:\C Users RNCK\Music\RIPS\Eccentric Soul-The Deep City Label\08 - Moovers - I Love You Baby.wav

Pre-gap length 0:00:02.53

Peak level 99.4 %
Extraction speed 2.4 X
Track quality 100.0 %
Test CRC 9F74AC9B
Copy CRC 9F74AC9B
Accurately ripped (confidence 9) [48BED071] (AR v2)
Copy OK

Track 9

Filename H:\C Users RNCK\Music\RIPS\Eccentric Soul-The Deep City Label\09 - Helene Smith - Pain In My Heart.wav

Pre-gap length 0:00:02.53

Peak level 99.6 %
Extraction speed 2.5 X
Track quality 100.0 %
Test CRC B2D70CFC
Copy CRC B2D70CFC
Accurately ripped (confidence 9) [3C641CEE] (AR v2)
Copy OK

Track 10

Filename H:\C Users RNCK\Music\RIPS\Eccentric Soul-The Deep City Label\10 - Paul Kelly - The Upset.wav

Pre-gap length 0:00:02.53

Peak level 99.5 %
Extraction speed 1.6 X
Track quality 99.9 %
Test CRC 702D2204
Copy CRC 702D2204
Accurately ripped (confidence 9) [80D4C036] (AR v2)
Copy OK

Track 11

Filename H:\C Users RNCK\Music\RIPS\Eccentric Soul-The Deep City Label\11 - Moovers - One Little Dance.wav

Pre-gap length 0:00:02.53

Peak level 99.4 %
Extraction speed 2.6 X
Track quality 100.0 %
Test CRC E6F887BC
Copy CRC E6F887BC
Accurately ripped (confidence 9) [7C5FA7F6] (AR v2)
Copy OK

Track 12

Filename H:\C Users RNCK\Music\RIPS\Eccentric Soul-The Deep City Label\12 - Betty Wright - Good Lovin'.wav

Pre-gap length 0:00:02.53

Peak level 99.4 %
Extraction speed 1.8 X
Track quality 99.9 %
Test CRC A2E84416
Copy CRC A2E84416
Accurately ripped (confidence 9) [EFCBA43D] (AR v2)
Copy OK

Track 13

Filename H:\C Users RNCK\Music\RIPS\Eccentric Soul-The Deep City Label\13 - Helene Smith - Willing And Able.wav

Pre-gap length 0:00:02.53

Peak level 99.5 %
Extraction speed 2.8 X
Track quality 100.0 %
Test CRC EC8B9BE8
Copy CRC EC8B9BE8
Accurately ripped (confidence 9) [F768A25E] (AR v2)
Copy OK

Track 14

Filename H:\C Users RNCK\Music\RIPS\Eccentric Soul-The Deep City Label\14 - Paul Kelly - It's My Baby.wav

Pre-gap length 0:00:02.53

Peak level 99.4 %
Extraction speed 2.9 X
Track quality 100.0 %
Test CRC 04D88F12
Copy CRC 04D88F12
Accurately ripped (confidence 9) [D7DFBB66] (AR v2)
Copy OK

Track 15

Filename H:\C Users RNCK\Music\RIPS\Eccentric Soul-The Deep City Label\15 - Helene Smith - You Got To Do Your Share.wav

Pre-gap length 0:00:02.53

Peak level 99.6 %
Extraction speed 1.8 X
Track quality 99.9 %
Test CRC 0CAB0B06
Copy CRC 0CAB0B06
Accurately ripped (confidence 9) [3330145C] (AR v2)
Copy OK

Track 16

Filename H:\C Users RNCK\Music\RIPS\Eccentric Soul-The Deep City Label\16 - Frank Williams And The Rocketeers - Good Thing (Part 1).wav

Pre-gap length 0:00:02.53

Peak level 99.4 %
Extraction speed 3.1 X
Track quality 100.0 %
Test CRC 213F37FD
Copy CRC 213F37FD
Accurately ripped (confidence 9) [7B7FE3D8] (AR v2)
Copy OK

Track 17

Filename H:\C Users RNCK\Music\RIPS\Eccentric Soul-The Deep City Label\17 - Moovers - Darling I'll Go.wav

Pre-gap length 0:00:02.53

Peak level 99.4 %
Extraction speed 2.0 X
Track quality 99.9 %
Test CRC 5453D704
Copy CRC 5453D704
Accurately ripped (confidence 9) [9A5BFF0F] (AR v2)
Copy OK

All tracks accurately ripped

No errors occurred

End of status report

==== Log checksum 0C3CF59BA7747BFC2D22E1D138BEDBD84D8374A4840C8EEA8D538D702B5B544B ====




DOWNLOAD
uploadgig
Code: Select all
https://uploadgig.com/file/download/3d3807B4a027853f/osBCyk9o_VA_EcSThDpC.rar


rapidgator
Code: Select all
https://rapidgator.net/file/455325cdccda8797d8c79a23222bd1bc/osBCyk9o_VA_EcSThDpC.rar


nitroflare
Code: Select all
http://nitroflare.com/view/56E9144BD9EDBEB/osBCyk9o_VA_EcSThDpC.rar
TheCornor
[ Pwnage!!! ]
[ Pwnage!!! ]
 
Posts: 30718
Joined: 11 Dec 2018, 07:24

Return to Muzica

Who is online

Users browsing this forum: No registered users and 2 guests